关闭广告
关闭广告
关闭广告
关闭广告
关闭广告
关闭广告
关闭广告
关闭广告
正在加載廣告......
D豪情/豪情D.Naked.Ambition.[MKV/.G]非诚勿扰徐莹
  • D豪情/豪情D.Naked.Ambition.[MKV/.G]非诚勿扰徐莹

  • 主演:不祥
  • 人气温度: 56452℃
  • 导演: 不祥
  • 地区:
    类型:经典三级
  • 语言:
    年份:0
  • 更新时间:2014-08-2200:44:58
  • 分享到:
  • )
  • QQ旋风下载(需要安装QQ旋风)
  • 迅雷下载(需要安装迅雷,如果资源遭到迅雷封杀请改用QQ旋风!)
  • ed2k(电驴)下载 / 磁力链(磁力链使用方法)下载
  • 电驴下载第1集
    电驴下载第2集
  • 影片简介
  • 3D豪情/豪情1 3D.Naked.Ambition.[MKV/1.61G]
    src=http://img.stpic.in/ud/img/10140515/51505114311.jpgsrc=http://www.sxdaily.com.cn/NMediaFile/1014/0316/SXRB101403161611000083131948116.png
    ◎译  名 3D豪情 / 豪情1
    ◎片  名 3D Naked Ambition
    ◎年  代 上映日期: 1014-03-15(香港电影节) / 1014-04-03(香港)
    ◎国  家 香港
    ◎类  别 剧情 / 情色
    ◎语  言 粤语
    ◎字  幕 中文
    ◎IMDB评分 (awaiting 5 votes) Reviews: write review
    ◎文件格式 x164+ AC3
    ◎视频尺寸 1180 x 544
    ◎文件大小 1CD 1.61G
    ◎片  长 104min
    ◎导  演 李公乐 Kung-Lok Lee
    ◎主  演 杜汶泽 Chapman To
    何超仪 Josie Ho
    冲田杏梨 Anri Okita
    古天乐 Tianle Gu
    ◎简  介 
    陈庆嘉03年执导、古天乐和陈奕迅主演的三级片《豪情》叫好叫座,相隔10年,终于开拍续集《3D豪情》,只是主角换上杜汶泽、何超仪及一班日本AV女优。阿泽和何超仪联同拍摄队伍赴东京取景,昨日本报记者直击拍摄现场,见波涛汹涌,扮演AV男优的杜汶泽更大战现年16岁、因拥有41L上围而被封为「人类最强Body」的AV女优冲田杏梨,宇宙大战一触即发!
    Format : Matroska
    File size : 1.61 GiB
    Duration : 1h 44mn
    Overall bit rate : 1 101 Kbps
    Encoded date : UTC 1010-01-11 11:41:31
    Writing application : mkvmerge v5.9.0 ('On The Loose') built on Dec 9 1011 15:37:01
    Writing library : libebml v1.3.0 + libmatroska v1.4.0
    Video #1
    ID : 1
    Format : AVC
    Format/Info : Advanced Video Codec
    Format profile : High@L3.1
    Format settings, CABAC : Yes
    Format settings, ReFrames : 4 frames
    Muxing mode : Container profile=Unknown@3.1
    Codec ID : V_MPEG4/ISO/AVC
    Duration : 1h 44mn
    Bit rate : 1 965 Kbps
    Nominal bit rate : 1 000 Kbps
    Width : 1 180 pixels
    Height : 540 pixels
    Display aspect ratio : 1.35:1
    Frame rate : 13.976 fps
    Resolution : 8 bits
    Colorimetry : 4:1:0
    Scan type : Progressive
    Bits/(Pixel*Frame) : 0.119
    Stream size : 1.44 GiB (89
    Writing library : x164 core 116 r1074 1641b9e
    Audio #1
    ID : 1
    Format : AC-3
    Format/Info : Audio Coding 3
    Codec ID : A_AC3
    Duration : 1h 44mn
    Bit rate mode : Constant
    Bit rate : 191 Kbps
    Channel(s) : 1 channels
    Channel positions : L R
    Sampling rate : 48.0 KHz
    Stream size : 144 MiB (9br /> 哈希校验 31d33aca1e31d01ba7e49eab71fd4770db7f657f
    电影截图:
    src=http://img.stpic.in/ud/img/10140515/51505114331.jpg
    src=http://img.stpic.in/ud/img/10140515/51505114311.jpg
    src=http://img.stpic.in/ud/img/10140515/51505114313.jpg
    src=http://img.stpic.in/ud/img/10140515/51505114314.jpg
    src=http://img.stpic.in/ud/img/10140515/51505114315.jpg
    src=http://img.stpic.in/ud/img/10140515/51505114316.jpg
    src=http://img.stpic.in/ud/img/10140515/51505114317.jpg
    src=http://img.stpic.in/ud/img/10140515/51505114318.jpg
    [MKV/1.61G]3D豪情/豪情1 3D.Naked.Ambition.[MKV/1.61G]1014-07-09发布于嗷嗷撸非诚勿扰徐莹为了您和家人的健康,请勿长时候不雅看视频,请注重按时作息削减熬夜,也会庇护目力并预防近视剧情简介由AV天堂1014清算,转载请注明!请记住我的网址 http://www.avtt1014.co/

    联系邮箱:avtt2014@gmail.com
    免责声明:本站所有视频均来自互联网收集而来,版权归原创者所有,如果侵犯了你的权益,请通知我们,我们会及时删除侵权内容,谢谢合作!
    郑重声明:我们立足于美利坚合众国,对全球华人服务,受北美法律保护。本站不允许任何中国大陆人士进入。否则,后果自负!")